ExtraTorrent.st - The Largest Bittorent System
Latest Articles
Most searched
Hot torrents
New Movies
Hot torrents
Foreign
ExtraTorrent.st > Categories > Anime torrents


Browse Anime torrents

The Boy and the Heron (2023) (1080p BluRay x265 HEVC 10bit EAC3 7.1 English + Japanese Garshasp) [QxR] torrent


Download torrent: Magnet link
Info hash: FA4C7F7C89279D53FB41ACCBE17BE6D978F72BFE
Category: Categories > Anime torrents
Trackers:
udp://tracker.opentrackr.org:1337/announce
udp://open.tracker.cl:1337/announcea
udp://9.rarbg.com:2810/announcace
udp://tracker.openbittorrent.com:6969/announce
udp://www.torrent.eu.org:451/announce
udp://tracker.torrent.eu.org:451/announce
udp://exodus.desync.com:6969/announce
udp://tracker.leechers-paradise.org:6969/announce
udp://tracker.internetwarriors.net:1337/announce
udp://tracker.coppersurfer.tk:6969/announce
udp://tracker.pirateparty.gr:6969/announce
udp://9.rarbg.to:2730/announce
udp://9.rarbg.to:2710/announce
udp://bt.xxx-tracker.com:2710/announce
udp://tracker.opentrackr.org:1337/announce
http://tracker.openbittorrent.com:80/announce
udp://opentracker.i2p.rocks:6969/announce
udp://tracker.internetwarriors.net:1337/announce
udp://tracker.leechers-paradise.org:6969/announce
udp://coppersurfer.tk:6969/announce
udp://tracker.zer0day.to:1337/announce
Health:
 seeds: 99, leechers: 32
Torrent language: English English
Total Size: 9.2 GB
Number of files:
8   
Uploader:
activeTJ
Torrent added:2024-07-08 05:04:00

Download The Boy and the Heron (2023) (1080p BluRay x265 HEVC 10bit EAC3 7.1 English + Japanese Garshasp) [QxR] torrent




Torrent Description
IMDb (7.5/10)



Genres


Animation, Adventure, Drama



Actors


Soma Santoki, Masaki Suda, Kô Shibasaki



Plot Summary


In the wake of his mother's death and his father's remarriage, a headstrong boy named Mahito ventures into a dreamlike world shared by both the living and the dead.







Media Information



Code:


General

Format : Matroska
Format version : Version 4
File size : 6.39 GiB
Duration : 2 h 3 min
Overall bit rate : 7 385 kb/s
Frame rate : 23.976 FPS
Encoded date : 2024-07-06 07:34:38 UTC
Writing application : mkvmerge v84.0 ('Sleeper') 64-bit
Writing library : libebml v1.4.5 + libmatroska v1.7.1

Video

ID : 1
Format : HEVC
Format/Info : High Efficiency Video Coding
Format profile : Main 10@L4@Main
Codec ID : V_MPEGH/ISO/HEVC
Duration : 2 h 3 min
Bit rate : 5 002 kb/s
Width : 1 920 pixels
Height : 1 040 pixels
Display aspect ratio : 1.85:1
Frame rate mode : Constant
Frame rate : 23.976 (24000/1001) FPS
Color space : YUV
Chroma subsampling : 4:2:0
Bit depth : 10 bits
Bits/(Pixel*Frame) : 0.104
Stream size : 4.33 GiB (68%)
Writing library : x265 3.6+28-4b272f71c:[Windows][GCC 14.1.0][64 bit] 10bit
Encoding settings : cpuid=1111039 / frame-threads=3 / numa-pools=8 / wpp / no-pmode / no-pme / no-psnr / no-ssim / log-level=2 / input-csp=1 / input-res=1920x1040 / interlace=0 / total-frames=0 / level-idc=0 / high-tier=1 / uhd-bd=0 / ref=4 / no-allow-non-conformance / no-repeat-headers / annexb / no-aud / no-eob / no-eos / no-hrd / info / hash=0 / temporal-layers=0 / open-gop / min-keyint=23 / keyint=250 / gop-lookahead=0 / bframes=8 / b-adapt=2 / b-pyramid / bframe-bias=0 / rc-lookahead=25 / lookahead-slices=4 / scenecut=40 / no-hist-scenecut / radl=0 / no-splice / no-intra-refresh / ctu=64 / min-cu-size=8 / rect / no-amp / max-tu-size=32 / tu-inter-depth=1 / tu-intra-depth=1 / limit-tu=0 / rdoq-level=2 / dynamic-rd=0.00 / no-ssim-rd / signhide / no-tskip / nr-intra=0 / nr-inter=0 / no-constrained-intra / strong-intra-smoothing / max-merge=3 / limit-refs=3 / limit-modes / me=3 / subme=3 / merange=57 / temporal-mvp / no-frame-dup / no-hme / weightp / no-weightb / no-analyze-src-pics / deblock=0:0 / no-sao / no-sao-non-deblock / rd=4 / selective-sao=0 / no-early-skip / rskip / no-fast-intra / no-tskip-fast / no-cu-lossless / no-b-intra / no-splitrd-skip / rdpenalty=0 / psy-rd=2.00 / psy-rdoq=1.00 / no-rd-refine / no-lossless / cbqpoffs=0 / crqpoffs=0 / rc=crf / crf=18.0 / qcomp=0.60 / qpstep=4 / stats-write=0 / stats-read=0 / ipratio=1.40 / pbratio=1.30 / aq-mode=3 / aq-strength=1.00 / cutree / zone-count=0 / no-strict-cbr / qg-size=32 / no-rc-grain / qpmax=69 / qpmin=0 / no-const-vbv / sar=1 / overscan=0 / videoformat=5 / range=0 / colorprim=2 / transfer=2 / colormatrix=2 / chromaloc=0 / display-window=0 / cll=0,0 / min-luma=0 / max-luma=1023 / log2-max-poc-lsb=8 / vui-timing-info / vui-hrd-info / slices=1 / no-opt-qp-pps / no-opt-ref-list-length-pps / no-multi-pass-opt-rps / scenecut-bias=0.05 / no-opt-cu-delta-qp / aq-motion / no-hdr10 / no-hdr10-opt / no-dhdr10-opt / no-idr-recovery-sei / analysis-reuse-level=0 / analysis-save-reuse-level=0 / analysis-load-reuse-level=0 / scale-factor=0 / refine-intra=0 / refine-inter=0 / refine-mv=1 / refine-ctu-distortion=0 / no-limit-sao / ctu-info=0 / no-lowpass-dct / refine-analysis-type=0 / copy-pic=1 / max-ausize-factor=1.0 / no-dynamic-refine / no-single-sei / no-hevc-aq / no-svt / no-field / qp-adaptation-range=1.00 / scenecut-aware-qp=0conformance-window-offsets / right=0 / bottom=0 / decoder-max-rate=0 / no-vbv-live-multi-pass / no-mcstf / no-sbrc
Default : Yes
Forced : Yes
Color range : Limited
Matrix coefficients : BT.709

Audio

Audio #1
ID : 2
Format : E-AC-3
Format/Info : Enhanced AC-3
Commercial name : Dolby Digital Plus
Format settings : Dolby Surround EX
Codec ID : A_EAC3
Duration : 2 h 3 min
Bit rate mode : Constant
Bit rate : 960 kb/s
Channel(s) : 8 channels
Channel layout : L R C LFE Ls Rs Lb Rb
Sampling rate : 48.0 kHz
Frame rate : 31.250 FPS (1536 SPF)
Compression mode : Lossy
Stream size : 851 MiB (13%)
Language : English
Service kind : Complete Main
Default : Yes
Forced : No

Audio #2
ID : 3
Format : E-AC-3
Format/Info : Enhanced AC-3
Commercial name : Dolby Digital Plus
Format settings : Dolby Surround EX
Codec ID : A_EAC3
Duration : 2 h 3 min
Bit rate mode : Constant
Bit rate : 960 kb/s
Channel(s) : 8 channels
Channel layout : L R C LFE Ls Rs Lb Rb
Sampling rate : 48.0 kHz
Frame rate : 31.250 FPS (1536 SPF)
Compression mode : Lossy
Stream size : 851 MiB (13%)
Language : Japanese
Service kind : Complete Main
Default : No
Forced : No

Audio #3
ID : 4
Format : AC-3
Format/Info : Audio Coding 3
Commercial name : Dolby Digital
Codec ID : A_AC3
Duration : 2 h 3 min
Bit rate mode : Constant
Bit rate : 448 kb/s
Channel(s) : 6 channels
Channel layout : L R C LFE Ls Rs
Sampling rate : 48.0 kHz
Frame rate : 31.250 FPS (1536 SPF)
Compression mode : Lossy
Stream size : 397 MiB (6%)
Title : Audio Description
Language : English
Service kind : Complete Main
Default : No
Forced : No
AC3_metadata cmixlev : -3.0 dB
surmixlev : -3 dB

Subtitles

Text #1
ID : 5
Format : VobSub
Muxing mode : zlib
Codec ID : S_VOBSUB
Codec ID/Info : Picture based subtitle format used on DVDs
Duration : 2 h 3 min
Bit rate : 5 306 b/s
Frame rate : 0.201 FPS
Count of elements : 1485
Stream size : 4.68 MiB (0%)
Title : For the Deaf and Hard of Hearing
Language : English
Default : No
Forced : No

Text #2
ID : 6
Format : VobSub
Muxing mode : zlib
Codec ID : S_VOBSUB
Codec ID/Info : Picture based subtitle format used on DVDs
Duration : 2 h 3 min
Bit rate : 3 924 b/s
Frame rate : 0.163 FPS
Count of elements : 1210
Stream size : 3.47 MiB (0%)
Language : English
Default : No
Forced : No

Text #3
ID : 7
Format : VobSub
Muxing mode : zlib
Codec ID : S_VOBSUB
Codec ID/Info : Picture based subtitle format used on DVDs
Duration : 2 h 3 min
Bit rate : 3 101 b/s
Frame rate : 0.113 FPS
Count of elements : 838
Stream size : 2.73 MiB (0%)
Language : English
Default : No
Forced : No

Text #4
ID : 8
Format : VobSub
Muxing mode : zlib
Codec ID : S_VOBSUB
Codec ID/Info : Picture based subtitle format used on DVDs
Duration : 2 h 3 min
Bit rate : 3 395 b/s
Frame rate : 0.117 FPS
Count of elements : 867
Stream size : 2.99 MiB (0%)
Language : Spanish
Default : No
Forced : No

Text #5
ID : 9
Format : VobSub
Muxing mode : zlib
Codec ID : S_VOBSUB
Codec ID/Info : Picture based subtitle format used on DVDs
Duration : 2 h 3 min
Bit rate : 3 453 b/s
Frame rate : 0.133 FPS
Count of elements : 980
Stream size : 3.04 MiB (0%)
Language : French
Default : No
Forced : No

Text #6
ID : 10
Format : VobSub
Muxing mode : zlib
Codec ID : S_VOBSUB
Codec ID/Info : Picture based subtitle format used on DVDs
Duration : 2 h 0 min
Bit rate : 223 b/s
Frame rate : 0.005 FPS
Count of elements : 38
Stream size : 198 KiB (0%)
Language : English
Default : No
Forced : No

Text #7
ID : 11
Format : VobSub
Muxing mode : zlib
Codec ID : S_VOBSUB
Codec ID/Info : Picture based subtitle format used on DVDs
Duration : 2 h 1 min
Bit rate : 252 b/s
Frame rate : 0.006 FPS
Count of elements : 43
Stream size : 224 KiB (0%)
Language : Spanish
Default : No
Forced : No

Chapters

00:00:00.000 : en:(01)00:00:00:000
00:05:30.121 : en:(02)00:05:30:121
00:10:16.157 : en:(03)00:10:16:157
00:17:07.776 : en:(04)00:17:07:776
00:20:43.700 : en:(05)00:20:43:700
00:24:12.325 : en:(06)00:24:12:325
00:29:22.552 : en:(07)00:29:22:552
00:35:32.547 : en:(08)00:35:32:547
00:41:40.247 : en:(09)00:41:40:247
00:50:10.298 : en:(10)00:50:10:298
00:57:36.619 : en:(11)00:57:36:619
01:02:38.337 : en:(12)01:02:38:337
01:05:09.196 : en:(13)01:05:09:196
01:09:34.128 : en:(14)01:09:34:128
01:12:57.456 : en:(15)01:12:57:456
01:15:44.414 : en:(16)01:15:44:414
01:19:13.081 : en:(17)01:19:13:081
01:21:15.078 : en:(18)01:21:15:078
01:24:41.951 : en:(19)01:24:41:951
01:27:23.196 : en:(20)01:27:23:196
01:30:03.231 : en:(21)01:30:03:231
01:35:21.757 : en:(22)01:35:21:757
01:39:53.779 : en:(23)01:39:53:779
01:45:19.730 : en:(24)01:45:19:730
01:47:45.125 : en:(25)01:47:45:125
01:51:22.759 : en:(26)01:51:22:759
01:59:18.985 : en:(27)01:59:18:985
02:03:55.928 : en:(28)02:03:55:928







Source Information



Code:

The.Boy.and.the.Heron.2023.1080p.USA.Blu-ray.AVC.DTS-HD.MA.7.1-TMT





Note From QxR:



Quote:

Whilst we are happy for our releases to be re-posted on a platform we aren't on, please do so in an 'as-is' format. We ask that you do not create a new torrent, include all descriptions you see above including the QxR logo, tags, notes and screenshots. If you'd like to become a permanent poster on a website we don't post to, feel free to get in contact with a QxR member.

Download The Boy and the Heron (2023) (1080p BluRay x265 HEVC 10bit EAC3 7.1 English + Japanese Garshasp) [QxR] torrent


Related Torrents



Home - Browse Torrents
ExtraTorrent.st is in compliance with copyrights
2024 ExtraTorrent.st